Фильм Золушка 2011 Дюге

  • 12 Comments!
Фильм Золушка 2011 Дюге Average ratng: 9,5/10 6349votes

В ролях: Кристиан Дюге, Флавио Паренти, Рут-Мария Кубичек и др. Рим, 1946 год. Известный дирижер Валерио Де Лука уходит из жизни, оставив горячо любимую дочь Аврору во власти злой мачехи.

Фильм Золушка 2011 Дюге

Золушка / Cenerentola Год выпуска: 2011 Страна: Италия Жанр: драма Продолжительность: 01:38:00+01:44:00 Перевод: Профессиональный (многоголосый закадровый) студия 'Акцент-Про' по заказу ГТРК 'Культура' Русские субтитры: нет Режиссёр: Кристиан Дюге / Christian Duguay В ролях: Флавио Паренти, Рут-Мария Кубичек, Наталия Вёрнер, Фрэнк Круделе, Илария Спада, Мариэлла Валентини, Розабелла Лауренти Селлерс, Ваня Селлерс, Хари Принц, Дэвид Брэндон Описание: Рим, 1946 год. Известный дирижер Валерио Де Лука уходит из жизни, оставив горячо любимую дочь Аврору во власти злой мачехи. Газовая Плита Идель Отзывы подробнее. Но унаследованные от родителей талант, любовь и вера помогают девушке преодолеть все невзгоды. Ссылка на предыдущие и альтернативные раздачи: Сэмпл: Качество: SATRip Формат: AVI Видео кодек: XviD Аудио кодек: AC3 Видео: XviD, 688x384 (16:9), 25.000 fps, 1 413 kbps (0.214 bit/pixel) Аудио: AC3, 48.0 KHz, 2 ch, 192 kbps. Общее Полное имя: K: Золушка 1с.avi Формат: AVI Формат/Информация: Audio Video Interleave Размер файла: 1,11 Гбайт Продолжительность: 1 ч. Общий поток: 1614 Кбит/сек Название фильма: Золушка / Cenerentola (2011) Программа кодирования: VirtualDubMod 1.5.10.2 (build 2540/release) Библиотека кодирования: VirtualDubMod build 2540/release Видео Идентификатор: 0 Формат: MPEG-4 Visual Профиль формата: Advanced Simple@L5 Параметр BVOP формата: 2 Параметр QPel формата: Нет Параметр GMC формата: Без точки перехода Параметр матрицы формата: Default (H.263) Идентификатор кодека: XVID Идентификатор кодека/Подсказка: XviD Продолжительность: 1 ч. Битрейт: 1413 Кбит/сек Ширина: 688 пикселей Высота: 384 пикселя Соотношение сторон: 16:9 Частота кадров: 25,000 кадров/сек Цветовое пространство: YUV Субдискретизация насыщенности: 4:2:0 Битовая глубина: 8 бит Тип развёртки: Прогрессивная Метод сжатия: С потерями Бит/(Пиксели*Кадры): 0.214 Размер потока: 992 Мбайт (88%) Библиотека кодирования: XviD 1.2.1 (UTC 2008-12-04) Аудио Идентификатор: 1 Формат: AC-3 Формат/Информация: Audio Coding 3 Расширение режима: CM (complete main) Идентификатор кодека: 2000 Продолжительность: 1 ч.

Вид битрейта: Постоянный Битрейт: 192 Кбит/сек Каналы: 2 канала Расположение каналов: Front: L R Частота: 48,0 КГц Битовая глубина: 16 бит Метод сжатия: С потерями Размер потока: 134 Мбайт (12%) Выравнивание: Разделение по промежуткам Продолжительность промежутка: 40 мс. (1,01 видеокадр) Время предзагрузки промежутка: 500 мс. Заголовок: Профессиональный (многоголосый, закадровый) Культура.